<?xml version="1.0" standalone="no"?>
<!DOCTYPE svg PUBLIC "-//W3C//DTD SVG 1.1//EN" "http://www.w3.org/Graphics/SVG/1.1/DTD/svg11.dtd" >
<svg xmlns="http://www.w3.org/2000/svg">
<metadata>Generated by IcoMoon</metadata>
<defs>
<font id="icon_pvg" horiz-adv-x="1024">
<font-face units-per-em="1024" ascent="960" descent="-64" />
<missing-glyph horiz-adv-x="1024" />
<glyph unicode="&#x20;" horiz-adv-x="512" d="" />
<glyph unicode="&#x2f;" glyph-name="uni2F" d="M341.334 550.4l54.912 12.928c0 0-3.072 34.26 24.022 60.16 27.136 25.856 51.882 28.716 51.882 28.716l5.676 49.452c0 0-37.334 0.128-84.266-44.118-49.28-46.38-52.224-107.136-52.224-107.136zM512.044 789.332c-0.044 0-0.044 0 0 0-0.044 0-0.044 0-0.084 0-141.396 0-255.956-101.376-255.956-226.432 0-71.724 37.676-135.596 96.512-176.98l20.48-129.152c0-7.51 6.87-13.568 15.318-13.568h247.34c8.534 0 15.318 6.1 15.318 13.568l20.566 129.152c58.752 41.428 96.428 105.26 96.428 176.98 0.044 125.056-114.56 226.432-255.914 226.432zM623.744 411.562l-16.47-110.932c0-6.1-5.548-11.008-12.288-11.008h-165.932c-6.87 0-12.372 4.948-12.372 11.008l-16.512 110.932c-47.318 33.28-91.008 84.564-91.008 142.25 0 99.754 90.538 183.98 202.836 185.558 112.34-1.58 202.924-85.802 202.924-185.558 0-57.644-43.86-108.972-91.178-142.25zM631.51 208.98h-239.020c-9.344 0-16.98-7.596-16.98-16.98v-34.176c0-9.428 7.68-16.98 16.98-16.98 9.388 0 17.068-7.764 17.068-17.152 0.044-9.344 7.724-17.024 17.108-17.024h170.666c9.428 0 16.98 7.68 16.98 16.98 0 9.428 7.764 17.152 17.152 17.152s16.98 7.596 16.98 16.98v34.22c0.044 9.428-7.552 16.98-16.938 16.98z" />
<glyph unicode="&#x31;" glyph-name="uni31" d="M410.325 557.141l-14.805-1.621-3.157-4.224 15.531-3.968 7.936-7.211 12.373-1.621-4.608-9.003 9.301-2.347 13.269 6.443v9.728l-18.688 4.011zM849.067 412.331l-4.565-10.539-13.269-4.139-3.968-8.789 3.2-6.528-4.864-8.064-3.029-3.285 9.984-16.853 9.344-1.792v8.149l5.589 12.245 6.997 25.813-1.451 12.032zM453.888 532.821l1.579-4.864h7.083l3.115 5.632-3.968 6.528zM497.536 674.261l-3.115-2.389-7.723-5.632v-4.864l17.152-6.528 6.955 3.285v8.107l-7.765 7.253zM698.667 622.549l-3.456 2.859-5.504-7.253 9.344-0.981zM705.664 624.939l1.579 2.048v4.011h-6.229l-1.963-1.579 1.963-4.48zM667.776 684.587l0.683 12.8-5.973-0.555v-3.029l-7.339-0.64-0.64-14.677h8.661zM691.712 719.061c0 1.109 0 4.907 0 4.907h-2.901l0.256 2.901h2.133l0.555 4.949-4.309-0.213v-13.44c0 0 0.256 0 0.768 0 1.109 0 3.499 0.043 3.499 0.896zM680.576 721.621l-0.555-1.664h2.816l-0.213 6.741-4.48 0.171 0.171-4.651zM566.784 789.333c-115.072 0-216.363-59.691-275.2-149.76-183.68-74.283-155.477-133.504-53.461-172.629 0-2.645-0.341-5.248-0.341-7.893 0-64.725 18.944-125.056 51.157-176.043-0.384 0-0.683-0.085-0.981-0.128h-72.149c-24.32 0-61.611-14.891-78.677-35.968-5.632-4.395-9.131-11.264-9.131-22.613v-58.752c0-32.555 26.197-58.709 58.539-58.709h29.269l87.723-0.171c2.304 0 4.821 0.341 7.552 0.896 7.339 0.768 14.208 3.157 20.437 6.741 26.752 11.349 59.733 34.005 77.099 55.339 47.061-25.984 100.907-40.832 158.208-40.832 181.461 0 329.216 148.181 329.216 330.24-0.043 182.101-147.797 330.283-329.259 330.283zM438.187 730.496l-0.085-1.323-2.859-22.016-7.040-10.965-1.067-9.728h-7.040l-4.779 12.117-11.605 10.667-1.237 1.237c11.349 7.424 23.296 13.995 35.712 20.011zM482.944 318.635l-0.939 2.645h10.581c0 0 19.883 23.083 19.883 26.752s4.651 15.744 4.651 15.744l16.341 6.059 10.539 21.888v7.637c128.981-34.005 54.699-58.24-61.056-80.725zM401.365 470.571v-0.043c-62.080 11.349-103.467 24.661-129.707 39.040 4.224 24.619 10.965 48.299 20.736 70.357l0.171-3.84 1.024-1.408 10.709-14.293 7.083-3.669v15.787l10.411-22.997 0.981-0.896 20.139-16.128 15.104-7.296 10.667 2.475 12.8-6.059 2.432-20.693 22.229-12.117 2.261-13.312-7.040-4.907zM279.637 619.819c-15.616-27.989-27.264-58.411-34.219-90.667-28.8 31.36-1.237 64.896 34.219 90.667zM267.008 456.96c36.011-11.136 77.995-20.395 121.771-27.264 5.803-0.853 11.307-1.92 16.811-2.688l6.272-17.024 23.424-18.304-1.152-37.547-1.195-8.448v-24.405l-4.693-4.864-0.384-7.979c-35.883-6.4-73.088-12.757-107.947-19.371-32.981 47.915-52.395 105.515-52.907 167.893zM303.531 165.547v29.355h-58.453v-29.525l-29.269 0.085v29.44h-29.269v-29.355c-20.651 0-26.667 18.347-28.459 36.779 4.139 24.021 28.245 21.973 57.771 21.973h58.496c32.213 0 58.496 2.901 58.496-29.355 0-10.837-2.987-20.864-7.979-29.44l-21.333 0.043zM673.28 178.133l-14.805 3.584-26.581-14.848-23.253 8.107-49.664 8.491-28.117 3.328c0 0-28.971-13.781-38.955-18.773-25.216 6.485-49.152 16.341-71.339 28.928v27.989c8.619 2.133 16.555 4.437 24.747 6.741h21.504l-5.973 4.139c424.875 119.381 236.971 185.216 84.395 212.693l-8.32 4.992-11.648 1.323-18.688 8.405 1.109 7.253-16.384 16.981-20.992 1.152 3.584 8.533-12.971 9.643-19.84 2.517-12.885 4.821-14.037-15.659-17.621 16.853 8.32 13.483-8.32 3.584-9.259-4.821-3.456 8.491 3.456 13.355-10.453 1.237-11.819-13.44-15.104 9.643 2.347 26.752 11.733 7.339 13.952-1.152 1.152 4.779h18.731l2.347-17.024 6.997-3.669 1.152 25.6 7.083 10.752h12.8v15.915l4.693-2.475 1.152 18.176 11.648-2.475 2.347 8.533 8.235 9.643h11.605l-1.067-4.779 4.651-6.059 9.344 7.211 14.037 3.584-20.992 7.253-8.235 9.771h-5.76l4.523 7.211h15.189l21.077 9.685 1.152 8.661-15.019 16.683-1.28 1.451 2.261 8.533-6.997 9.685-15.104-10.923-4.779 18.261-14.251 0.725c4.608 2.048 9.387 3.84 14.123 5.675l1.024-0.64 5.291-3.029 7.893-5.632 6.272 3.285 3.84 12.16-0.469 1.877c2.005 0.64 4.224 1.024 6.272 1.664l0.981-0.299 2.56-0.768v1.963c9.045 2.219 18.304 4.096 27.648 5.461v-0.085l2.773-9.045c0 0-3.925-6.528-1.493-8.107 2.261-1.579 10.027-13.696 10.027-13.696l8.875-4.053 5.248-2.347 3.328 3.456 0.597 0.555 10.027 25.856 10.965 3.2 6.101 7.467c15.787-0.597 31.317-2.176 46.379-5.205l-7.339-2.987-0.768-4.907 11.733-7.381 8.576 1.621 10.027 6.485-0.427 1.792c20.992-5.973 41.259-13.867 60.203-23.936l0.683-15.36 13.952 6.741c0.683-0.299 1.109-0.597 1.536-0.896l3.072-13.184-1.28-6.016 11.904 1.237 4.096 6.101c1.792-1.152 3.243-2.389 5.035-3.669l-4.352-6.059-19.243-1.28h-1.792l-0.213 0.981-2.091 13.611-8.192-7.253v-10.923l-15.189-12.117-9.344 4.736 4.565 6.229c0 0-6.955 13.312-8.149 18.091-0.171 0.981-0.256 1.835-0.512 2.688-0.555 3.797-0.555 6.997-0.555 6.997l-6.016-4.907-5.717-4.736 5.803-14.72-8.32-18.048 16.512-1.323-8.107-4.821 2.091-8.533 8.363-1.28-4.608-5.973v-6.059l-8.192-2.347-16.469 1.195-2.347-31.531 32.811-0.811v14.123l15.104 14.635 11.861-1.237-2.56-18.219 9.472 1.195 1.067 18.261 11.691-15.872 0.896-4.395-8.619-4.011 9.984-7.381 9.429 11.008v8.363l-9.387 11.008-9.344 7.339 18.773-8.491 9.429-21.845 11.648-17.024 9.301 1.152v8.533h-10.496v13.355l1.195 4.864 15.275-19.371 5.76 6.059-2.475-9.771 11.733-2.475-1.067-11.989-23.467 1.152-15.232 3.541h-8.235l-0.896-7.211-11.904 6.101-2.261 4.779-10.453 0.64-1.835 12.245-25.173 3.072-16.299-6.101-16.427-1.365-11.691-16.853-3.456-11.051-23.381-29.013 1.28-37.632 32.597-33.963 36.309 7.253 10.368-8.576h7.125l2.347-4.864-1.067-10.837v-7.296l12.715-23.040 2.389-18.133-9.344-4.821v-18.176l6.955-13.44 4.693-27.861 10.581-7.168-1.28-20.736 25.856 2.347 23.253 23.253 4.651 10.837 5.973 3.797 1.109 21.803 17.493 18.261v21.717l-4.651 18.133 12.8 19.371 18.859 14.635 8.192 20.651v11.947h-10.624l-9.344-9.643-4.608 9.643-21.035 33.963-1.152 10.965-7.040 4.864-3.456 21.76 18.731-30.293-2.432-8.491 11.691-6.016 3.413-9.813 11.819-10.837h5.803l14.805 7.723c4.011-19.883 6.272-40.533 6.272-61.611 0.085-128.256-80.512-237.824-193.365-280.96z" />
<glyph unicode="&#x3c;" glyph-name="uni3C" horiz-adv-x="658" d="M424 61.144l-372.572 372q-21.144 21.144-21.144 51.714t21.144 51.714l372.572 372q21.144 21.144 51.714 21.144t51.714-21.144l42.856-42.856q21.144-21.144 21.144-51.714t-21.144-51.714l-277.714-277.714 277.714-277.142q21.144-21.714 21.144-52t-21.144-51.428l-42.856-42.856q-21.144-21.144-51.714-21.144t-51.714 21.144z" />
<glyph unicode="&#x3d;" glyph-name="cart" d="M784.896 175.68c0-37.536-30.432-67.968-67.968-67.968s-67.968 30.432-67.968 67.968c0 37.536 30.432 67.968 67.968 67.968s67.968-30.432 67.968-67.968zM819.2 345.632h-477.856l-68.256 341.312h-136.544c-24.896 0-34.144-9.248-34.144-34.144s9.248-34.144 34.144-34.144h68.256l68.256-341.312h546.144c24.896 0 34.144 14.816 34.144 34.144 0 20.64-9.248 34.144-34.144 34.144zM512.192 175.136c0-37.824-30.656-68.48-68.48-68.48s-68.48 30.656-68.48 68.48c0 37.824 30.656 68.48 68.48 68.48s68.48-30.656 68.48-68.48zM819.2 448h-409.6c-18.848 0-34.144-15.296-34.144-34.144 0-18.88 15.296-34.144 34.144-34.144h409.6c18.88 0 34.144 15.264 34.144 34.144 0 18.848-15.264 34.144-34.144 34.144zM853.344 550.4h-477.856c-18.848 0-34.144-15.296-34.144-34.144s15.296-34.144 34.144-34.144h477.856c18.88 0 34.144 15.296 34.144 34.144s-15.264 34.144-34.144 34.144zM887.456 652.8h-546.144c-18.848 0-34.144-15.296-34.144-34.144s15.296-34.144 34.144-34.144h546.144c18.88 0 34.144 15.296 34.144 34.144s-15.264 34.144-34.144 34.144z" />
<glyph unicode="&#x3e;" glyph-name="uni3E" horiz-adv-x="658" d="M628 484.572q0-29.714-21.144-52l-372.572-372q-21.144-21.144-51.43-21.144t-51.43 21.144l-43.43 42.856q-21.144 22.286-21.144 52 0 30.286 21.144 51.428l277.714 277.714-277.714 277.142q-21.144 22.286-21.144 52 0 30.286 21.144 51.428l43.43 42.858q20.57 21.714 51.43 21.714t51.43-21.714l372.572-372q21.144-21.144 21.144-51.43z" />
<glyph unicode="&#x3f;" glyph-name="uni3F" d="M464 112c-142.016 38.112-287.936 184.32-150.048 384.096 67.008 97.12 176.448 199.68 150.048 287.904 66.816-15.744 172.096-183.104 96-320 31.456-4.064 89.952 38.176 96 96 159.168-111.552 117.92-357.088-96-416 28.064 134.048-54.304 75.456-32 192-95.296-41.536-144.032-119.584-64-224z" />
<glyph unicode="&#x41;" glyph-name="uni41" d="M631.466 610.134c-119.466 0-179.2-59.734-179.2-179.2s59.734-179.2 179.2-179.2 179.2 59.732 179.2 179.2c0 119.466-94.346 179.2-179.2 179.2zM631.466 324.268c-51.2 0-106.668 55.466-106.668 106.668 0 51.2 55.466 106.668 106.668 106.668s106.668-55.466 106.668-106.668c0-51.2-55.466-106.668-106.668-106.668zM375.466 721.068l-34.132 68.268h-136.532l-34.134-68.268h-68.266v-546.134h819.2v546.134h-546.134zM341.334 618.666h-102.4c-13.21 0-34.134 20.924-34.134 34.134 0 13.244 20.924 34.134 34.134 34.134h102.4c13.244 0 34.132-20.89 34.132-34.134 0-13.21-20.89-34.134-34.132-34.134zM631.466 217.6c-119.466 0-213.332 93.866-213.332 213.332s93.866 213.332 213.332 213.332 213.332-93.868 213.332-213.332-93.866-213.332-213.332-213.332zM887.466 652.8h-68.266v34.134h68.268v-34.134z" />
<glyph unicode="&#x43;" glyph-name="uni43" d="M947.576 524.322c-33.792 138.718-80.658 283.136-247.98 259.414-64.546-9.182-113.356-47.002-185.378-47.172-60.178-0.136-107.314 37.854-162.61 47.172-167.116 28.194-206.746-51.85-255.282-201.044-27.442-84.344-115.098-375.296-15.462-444.962 100.932-70.52 211.15 123.596 287.096 153.156 65.604 25.532 206.746 23.346 271.462 3.822 87.758-26.486 174.182-194.186 273.034-172.134 135.372 30.31 55.568 317.782 35.124 401.75zM324.266 401.578c-72.806 0.034-131.754 59.016-131.754 131.788s58.982 131.722 131.754 131.722c72.772 0 131.722-58.982 131.722-131.722 0.034-72.806-58.948-131.754-131.722-131.788zM717.38 653.244h68.266v-68.266h-68.268v68.266zM649.114 516.676v68.268h68.268v-68.268h-68.268zM785.648 448.444h-68.266v68.266h68.268v-68.266zM853.914 516.676h-68.268v68.268h68.268v-68.268zM324.266 610.782c-42.77-0.102-77.38-34.678-77.45-77.448 0.068-42.77 34.678-77.346 77.45-77.45 42.77 0.102 77.346 34.68 77.45 77.45-0.102 42.77-34.678 77.346-77.45 77.448z" />
<glyph unicode="&#x44;" glyph-name="uni44" d="M102.4 252.722l391.782-248.456v354.918l-391.782 248.524v-354.986zM803.090 709.258v-35.978c0-26.692-47.138-48.264-105.438-48.264-58.164 0-105.37 21.572-105.37 48.264v59.528h0.342c3.55-25.156 49.118-45.090 105.028-45.090 58.3 0 105.438 21.64 105.438 48.196 0 26.726-47.138 48.264-105.438 48.264-4.608 0-9.182-0.136-13.62-0.444l-67.822 42.358v-45.294c0-26.658-47.172-48.264-105.334-48.264-36.592 0-68.812 8.534-87.724 21.538-2.698 2.97-6.008 5.904-9.966 8.568-4.984 5.598-7.714 11.708-7.714 18.126v43.894l-65.57-40.96c-4.746 0.206-9.524 0.444-14.404 0.444-58.198 0-105.37-21.538-105.37-48.264 0-26.522 47.172-48.196 105.37-48.196 55.91 0 101.548 19.934 105.062 45.090h0.308v-59.494c0-26.692-47.104-48.264-105.37-48.264-58.198 0-105.37 21.572-105.37 48.264v35.5l-81.168-50.654 375.466-234.53 373.010 232.994-84.342 52.668zM617.028 560.094c0-26.658-47.206-48.23-105.37-48.23-58.23 0-105.404 21.572-105.404 48.23v59.562h0.342c3.55-25.156 49.118-45.124 105.096-45.124 55.91 0 101.478 19.968 105.096 45.124h0.274v-59.562zM529.818 359.184v-354.918l391.782 248.456v354.988l-391.782-248.526zM510.838 795.274c58.198 0 105.334 21.572 105.334 48.23 0 26.624-47.172 48.23-105.334 48.23-58.23 0-105.404-21.606-105.404-48.23 0-26.658 47.206-48.23 105.404-48.23z" />
<glyph unicode="&#x46;" glyph-name="uni46" d="M427.348 382.498l-84.718 82.5 117.044 17.034 52.326 106.052 52.326-106.052 117.076-17.034-84.72-82.5 20.036-116.6-104.722 55.024-104.688-55.024 20.036 116.6zM512 878.866l-137.114-277.81-306.62-44.578 221.866-216.27-52.396-305.358 274.26 144.178 274.226-144.212-52.326 305.358 221.832 216.302-306.586 44.578-137.148 277.812z" />
<glyph unicode="&#x4a;" glyph-name="uni4A" d="M0.806 90.336c-0.244 2.532-0.452 5.070-0.584 7.63 0.13-2.56 0.34-5.098 0.584-7.63zM235.908 394.852c92.010-2.738 153.734 92.698 137.862 213.198-15.894 120.48-103.396 217.168-195.408 219.922-92.026 2.73-153.74-89.482-137.852-210 15.882-120.468 103.352-220.374 195.398-223.12zM1024 704v85.31c0 93.88-76.782 170.69-170.658 170.69h-682.656c-92.276 0-168.012-74.232-170.564-165.926 58.362 51.386 139.324 94.316 222.874 94.316 89.304 0 357.244 0 357.244 0l-79.948-67.618h-113.268c75.13-28.804 115.156-116.124 115.156-205.722 0-75.248-41.81-139.954-100.888-185.968-57.644-44.902-68.572-63.708-68.572-101.878 0-32.578 61.746-88 94.032-110.788 94.382-66.538 124.916-128.312 124.916-231.456 0-16.428-2.042-32.83-6.066-48.96h307.742c93.874 0 170.656 76.75 170.656 170.69v533.308h-192v-191.998h-64v192h-191.998v64h191.998v192h64v-192h192zM185.886 194.064c21.614 0 41.422 0.59 61.936 0.59-27.146 26.334-48.626 58.6-48.626 98.38 0 23.608 7.564 46.336 18.134 66.52-10.782-0.77-21.79-0.994-33.126-0.994-74.356 0-137.506 24.076-184.204 63.854v-67.242l0.006-201.73c53.44 25.374 116.888 40.622 185.88 40.622zM3.42 72.742c-1.112 5.458-1.966 11.006-2.542 16.634 0.574-5.628 1.43-11.176 2.542-16.634zM455.45 7.154c-15.058 58.806-68.454 87.964-142.888 139.568-27.072 8.732-56.894 13.874-88.894 14.208-89.618 0.964-173.108-34.942-220.216-88.372 15.92-77.706 85.034-136.558 167.234-136.558h286.444c1.816 11.128 2.696 22.632 2.696 34.432 0 12.534-1.534 24.792-4.376 36.722z" />
<glyph unicode="&#x4b;" glyph-name="uni4B" d="M853.344 960h-682.66c-93.872 0-170.684-76.814-170.684-170.688v-682.626c0-93.938 76.812-170.686 170.684-170.686l682.66 0.002c93.876 0 170.656 76.746 170.656 170.688v682.622c0 93.874-76.782 170.688-170.656 170.688zM870.592 448h-166.592v-448h-192v448h-92.526v146.564h92.526v95.186c0 129.342 55.792 206.25 207.87 206.25h175.244v-158.57h-143.13c-42.482 0.070-47.752-22.152-47.752-63.512l-0.232-79.354h192l-25.408-146.564z" />
<glyph unicode="&#x4c;" glyph-name="uni4C" d="M853.342 960h-682.656c-93.874 0-170.686-76.81-170.686-170.69v-682.622c0-93.938 76.812-170.688 170.686-170.688h682.656c93.876 0 170.658 76.75 170.658 170.69v682.62c0 93.88-76.782 170.69-170.658 170.69zM838.052 618.166c0.328-7.342 0.49-14.728 0.49-22.148 0-226.214-169.216-487.068-478.658-487.068-95.004 0-183.434 28.348-257.886 76.918 13.16-1.588 26.552-2.394 40.13-2.394 78.822 0 151.358 27.37 208.934 73.282-73.616 1.38-135.744 50.876-157.154 118.882 10.274-2 20.812-3.074 31.652-3.074 15.344 0 30.206 2.096 44.32 6.008-76.96 15.732-134.95 84.916-134.95 167.856 0 0.722 0 1.438 0.016 2.152 22.68-12.82 48.624-20.52 76.2-21.41-45.142 30.698-74.842 83.092-74.842 142.488 0 31.37 8.294 60.778 22.778 86.058 82.974-103.57 206.936-171.72 346.754-178.862-2.87 12.532-4.358 25.596-4.358 39.014 0 94.538 75.326 171.18 168.23 171.18 48.39 0 92.118-20.786 122.802-54.058 38.32 7.676 74.324 21.92 106.832 41.542-12.562-39.976-39.234-73.522-73.966-94.71 34.026 4.138 66.452 13.34 96.62 26.954-22.546-34.324-51.070-64.476-83.944-88.61z" />
<glyph unicode="&#x4d;" glyph-name="uni4D" d="M1010.39 55.996l-466.794 819.172c-6.428 11.294-18.526 18.244-31.618 18.244s-25.094-6.9-31.618-18.244l-466.702-819.172c-6.38-11.058-6.238-24.624 0.284-35.634 6.474-10.966 18.432-17.722 31.286-17.722h933.496c12.808 0 24.67 6.758 31.288 17.722 6.568 10.966 6.712 24.576 0.472 35.634h-0.096zM569.586 107.414h-115.222v104.778h115.222v-104.778zM569.586 290.834h-115.222v314.426h115.222v-314.426z" />
<glyph unicode="&#x4e;" glyph-name="uni4E" d="M968.998 489.17c-59.126 145.916-177.136 206.418-434.35 206.418h-161.77l0.324 151.012c0 8.654-3.64 16.662-10.838 23.942-7.28 7.198-15.206 10.84-23.86 10.84s-16.5-3.64-23.7-10.84l-277.354-277.434c-7.198-7.118-10.758-15.126-10.758-23.78 0-8.492 3.56-16.582 10.84-23.86l277.354-277.274c7.2-7.28 15.206-10.918 23.78-10.918 8.654 0 16.582 3.64 23.86 10.918 7.2 7.198 10.838 15.206 10.838 23.698l-0.324 160.962h161.77c34.7 0 52.494 0 80.884 0-80.884 0 75.87-10.11 123.754-38.016 47.398-27.42 45.538-44.244 62.768-60.096 17.472-15.934 31.87-34.376 43.354-55.326s20.222-45.78 25.884-74.736c5.824-28.956 8.654-61.312 8.654-97.548 0-20.222-0.808-42.626-2.184-67.134 0-1.538-0.324-5.258-0.972-11.808-0.89-6.634-1.212-11.324-1.212-14.154 0-5.744 1.538-10.596 4.368-14.236 2.832-3.478 7.28-5.258 12.942-5.258 5.744 0 10.918 2.75 15.206 8.574 2.994 2.832 5.418 6.794 7.684 11.808 2.102 5.096 4.852 11 7.602 17.39 2.912 6.472 4.368 10.514 4.368 11.972 46.184 102.562 69.318 184.254 69.318 244.918 0.082 72.312-9.302 132.246-28.23 179.968v0z" />
<glyph unicode="&#x52;" glyph-name="uni52" d="M363.008 71.765l-35.413 27.179-35.243-27.349 13.568 43.605-35.541 26.923 43.776-0.085 13.312 43.691 13.44-43.691 43.776 0.341-35.456-27.008 13.781-43.605zM548.011 21.461l-35.328 27.093-35.285-27.264 13.611 43.648-35.627 26.837 43.819-0.043 13.269 43.733 13.44-43.691 43.776 0.341-35.499-27.051 13.824-43.605zM227.755 206.208l-35.413 27.051-35.285-27.307 13.611 43.733-35.584 26.752 43.776-0.043 13.269 43.819 13.483-43.776 43.819 0.256-35.499-26.923 13.824-43.563zM177.963 391.509l-35.371 27.179-35.285-27.264 13.568 43.691-35.499 26.795 43.776-0.085 13.312 43.861 13.397-43.776 43.819 0.256-35.499-26.923 13.781-43.733zM227.371 575.915l-35.371 27.093-35.328-27.221 13.611 43.691-35.584 26.752 43.819-0.085 13.269 43.776 13.483-43.733 43.776 0.299-35.499-26.965 13.824-43.605zM362.837 710.869l-35.413 27.093-35.285-27.264 13.653 43.691-35.584 26.837 43.776-0.043 13.312 43.776 13.44-43.733 43.819 0.299-35.499-27.008 13.781-43.648zM548.011 760.576l-35.328 27.093-35.285-27.221 13.611 43.691-35.627 26.795 43.819-0.043 13.269 43.776 13.44-43.733 43.776 0.256-35.499-26.88 13.824-43.733zM732.203 711.253l-35.328 27.136-35.413-27.264 13.653 43.691-35.584 26.752 43.691-0.043 13.312 43.819 13.568-43.733 43.648 0.256-35.413-26.923 13.867-43.691zM867.584 575.531l-35.413 27.093-35.2-27.264 13.525 43.691-35.456 26.795 43.691-0.085 13.312 43.819 13.44-43.733 43.776 0.256-35.499-26.923 13.824-43.648zM917.035 391.509l-35.413 27.179-35.243-27.264 13.525 43.691-35.541 26.752 43.733-0.085 13.355 43.861 13.397-43.776 43.819 0.256-35.584-26.923 13.952-43.691zM867.285 205.781l-35.328 27.136-35.413-27.264 13.739 43.648-35.669 26.837 43.819-0.213 13.355 43.861 13.397-43.691 43.733 0.256-35.499-26.88 13.867-43.691zM732.203 71.083l-35.328 27.179-35.413-27.349 13.653 43.733-35.584 26.837 43.691-0.085 13.312 43.733 13.568-43.691 43.648 0.256-35.413-26.965 13.867-43.648z" />
<glyph unicode="&#x53;" glyph-name="uni53" d="M870.912 528.555l-248.021 36.011-110.891 224.768-110.891-224.725-248.021-36.011 179.456-174.933-42.325-246.997 221.824 116.565 221.781-116.565-42.325 246.955 179.413 174.933zM512 277.333v401.109l78.336-158.677 175.104-25.472-126.763-123.563 29.909-174.421-156.587 81.024z" />
<glyph unicode="&#x56;" glyph-name="uni56" d="M160.64 494.624l95.36 113.376v192h128v-64l128 128 352-368.832v-463.168h-704l0.64 462.624zM448 480h-32v-160h32v-192h128v192h32v160h-32v32h-128v-32z" />
<glyph unicode="&#x57;" glyph-name="human2" d="M389.92 32v544h-18.24v-253.76c0-26.176-14.592-34.24-40.416-34.24-25.952 0-43.264 8.064-43.264 34.24v280.992c0 49.472 31.040 68.768 101.92 68.768h274.976c70.56 0 103.104-19.328 103.104-68.736v-280.992h-0.032c0-26.176-17.12-34.24-43.264-34.24-26.016 0-41.568 10.208-41.568 36.416v251.552h-18.24v-544c0-26.176-25.12-32-56.896-32-31.84 0-64 5.824-64 32v288h-32v-288zM512 32c0-26.176-32.16-32-64-32-31.776 0-58.080 5.824-58.080 32zM640 816c0-61.856-50.144-112-112-112s-112 50.144-112 112c0 61.856 50.144 112 112 112s112-50.144 112-112z" />
<glyph unicode="&#x58;" glyph-name="house" d="M827.008 448h-59.008v-341.344h-512v341.344h-59.136l-26.208 52.48 341.344 288.864 104.992-88.832v62.624h78.688v-129.28l157.664-133.376-26.336-52.48zM554.656 405.344h-170.656v-213.344h170.656v213.344z" />
<glyph unicode="&#x59;" glyph-name="uni59" d="M743.296 389.632c-42.837 0-77.483-34.688-77.483-77.44s34.645-77.525 77.483-77.525c42.752 0 77.483 34.688 77.483 77.483s-34.816 77.483-77.483 77.483zM743.296 270.805c-22.869 0-41.344 18.56-41.344 41.387 0 22.784 18.517 41.301 41.344 41.301 22.741 0 41.259-18.603 41.259-41.301 0-22.869-18.432-41.387-41.259-41.387zM242.731 389.632c-42.795 0-77.483-34.688-77.483-77.44s34.731-77.525 77.483-77.525c42.795 0 77.44 34.688 77.44 77.483s-34.688 77.483-77.44 77.483zM242.731 270.805c-22.869 0-41.301 18.56-41.301 41.387 0 22.784 18.517 41.301 41.301 41.301 22.827 0 41.301-18.603 41.301-41.301 0-22.869-18.432-41.387-41.301-41.387zM899.755 465.707c-21.76 11.819-155.136 38.784-155.136 38.784s-110.379 114.261-140.715 134.059c-30.336 19.755-49.237 22.784-49.237 22.784h-275.413c-49.451-3.925-155.136-156.843-155.136-156.843l-38.784-77.653v-77.483c0-30.549 38.784-38.784 38.784-38.784 0 38.784 38.784 116.309 116.352 116.309 77.611 0 116.352-77.483 116.352-116.309h271.488c0 38.784 38.741 116.309 116.352 116.309 77.525 0 116.352-77.483 116.352-116.309l77.525 38.784v38.741c-0.043 0 4.608 53.845-38.784 77.611zM170.667 490.667c0 0 89.173 128 108.587 128 19.371 0 247.211 0 271.531 0 58.027 0 131.883-128 131.883-128h-512z" />
<glyph unicode="&#x61;" glyph-name="uni61" horiz-adv-x="512" d="M511.872-64v1024l-512-512z" />
<glyph unicode="&#x62;" glyph-name="uni62" horiz-adv-x="512" d="M-0.128 960v-1024l512 512z" />
<glyph unicode="&#x63;" glyph-name="uni63" horiz-adv-x="1536" d="M0 960.13h128v-1024h-128v1024zM768-63.87v1024l-512-512zM1536-63.87v1024l-512-512z" />
<glyph unicode="&#x64;" glyph-name="uni64" horiz-adv-x="1536" d="M1407.872 960h128v-1024h-128v1024zM767.872 960v-1024l512 512zM-0.128 960v-1024l512 512z" />
<glyph unicode="&#x65;" glyph-name="uni65" d="M192 448.13c0 12.18 0.704 24.196 2.030 36.022l-184.98 60.104c-5.916-31.14-9.050-63.264-9.050-96.126 0-147.23 62.166-279.922 161.654-373.324l114.284 157.296c-52.124 56.926-83.938 132.758-83.938 216.028zM832 448.13c0-83.268-31.812-159.102-83.938-216.028l114.284-157.296c99.488 93.402 161.654 226.094 161.654 373.324 0 32.862-3.132 64.986-9.048 96.126l-184.98-60.104c1.324-11.828 2.028-23.842 2.028-36.022zM576 761.722c91.934-18.662 169.544-76.742 214.45-155.826l184.978 60.102c-73.196 155.42-222.24 268.060-399.428 290.156v-194.432zM233.55 605.896c44.906 79.084 122.516 137.164 214.45 155.826v194.43c-177.188-22.096-326.23-134.736-399.426-290.154l184.976-60.102zM644.556 156.802c-40.39-18.408-85.272-28.672-132.556-28.672s-92.166 10.264-132.554 28.67l-114.292-157.31c73.206-40.366 157.336-63.36 246.846-63.36s173.64 22.994 246.848 63.36l-114.292 157.312z" />
<glyph unicode="&#x66;" glyph-name="uni66" horiz-adv-x="586" d="M585.144 557.714q0-14.856-10.856-25.714l-256-256q-10.856-10.856-25.714-10.856t-25.714 10.856l-256 256q-10.856 10.856-10.856 25.714t10.856 25.714 25.714 10.856h512q14.856 0 25.714-10.856t10.856-25.714z" />
<glyph unicode="&#x67;" glyph-name="uni67" d="M954.856 636.572q0-22.856-16-38.856l-491.428-491.428q-16-16-38.856-16t-38.856 16l-284.572 284.572q-16 16-16 38.856t16 38.856l77.714 77.714q16 16 38.856 16t38.856-16l168-168.572 374.858 375.428q16 16 38.856 16t38.856-16l77.714-77.714q16-16 16-38.858z" />
<glyph unicode="&#x68;" glyph-name="uni68" horiz-adv-x="806" d="M741.714 204.572q0-22.856-16-38.856l-77.714-77.714q-16-16-38.856-16t-38.856 16l-168 168-168-168q-16-16-38.856-16t-38.856 16l-77.714 77.714q-16 16-16 38.856t16 38.856l168 168-168 168q-16 16-16 38.856t16 38.856l77.714 77.714q16 16 38.856 16t38.856-16l168-168 168 168q16 16 38.856 16t38.856-16l77.714-77.714q16-16 16-38.856t-16-38.856l-168-168 168-168q16-16 16-38.856z" />
<glyph unicode="&#x69;" glyph-name="uni69" horiz-adv-x="952" d="M920.572 265.144q0-30.286-21.144-51.428l-42.856-42.856q-21.714-21.714-52-21.714-30.856 0-51.428 21.714l-277.714 277.144-277.714-277.144q-20.57-21.714-51.43-21.714t-51.43 21.714l-42.856 42.856q-21.714 20.572-21.714 51.428 0 30.286 21.714 52l372 372q21.144 21.144 51.428 21.144 29.714 0 52-21.144l371.428-372q21.714-21.714 21.714-52z" />
<glyph unicode="&#x6a;" glyph-name="uni6A" horiz-adv-x="952" d="M920.572 557.714q0-30.286-21.144-51.428l-372-372q-21.714-21.714-52-21.714-30.856 0-51.428 21.714l-372 372q-21.714 20.572-21.714 51.428 0 30.286 21.714 52l42.286 42.856q22.286 21.144 52 21.144 30.286 0 51.43-21.144l277.714-277.714 277.714 277.714q21.144 21.144 51.428 21.144 29.714 0 52-21.144l42.856-42.856q21.144-22.286 21.144-52z" />
<glyph unicode="&#x6b;" glyph-name="uni6B" horiz-adv-x="1418" d="M676.784 306.502c17.566-11.5 59.076-11.5 81.92 4.49l623.616 629.13c-13.232 11.972-29.776 20.006-48.522 20.006h-1249.596c-15.518 0-29.066-6.222-41.040-14.65l633.62-638.976zM430.63 402.364l-430.63 433.626v-795.962c0-20.006 7.72-37.966 19.85-51.436l410.782 413.774zM1305.758-63.87l-394.004 397.47-105.946-106.654c-27.412-19.77-60.652-29.222-92.948-29.222-30.404 0-60.022 8.35-83.18 24.734l-110.75 111.616-394.634-397.942h1181.46zM1402.172-14.246c9.216 12.84 15.674 28.12 15.674 45.528v801.87l-428.346-431.576 412.672-415.822z" />
<glyph unicode="&#x6c;" glyph-name="uni6C" d="M1004.852 764.798l19.19-76.8-639.996-640.078 15.97 112.046 604.836 604.836zM352.064 207.96l-80.022-16.014-16.012 16.014 16.012 80.020 624.024 624.024 80.062-80.022-624.068-624.024zM224.050 335.976l-112.088-16.014 640.078 640.038 76.802-19.232-604.792-604.792zM64.050 15.978l15.97-16.054 15.038-45.116-79.046-18.808-16.014 16.054 18.808 79.004 45.242-15.082zM128.016 15.978l-47.996 47.91-47.994 16.054-5.338-16.054 49.944 209.816 99.422 14.232 32.026-32.024v-96.034l16.056-16.014 79.978-15.97 31.984-31.982v-83.832l-207.994-49.606 16.014 5.338-16.098 48.164z" />
<glyph unicode="&#x6d;" glyph-name="uni6D" d="M1001.696 461.402c0 34.46-28.004 62.464-62.51 62.464l-26.49 0.89-84.28 258.538-0.934 2.048c-12.376 29.294-25.244 51.734-49.998 68.342-24.798 16.294-55.562 26.98-87.486 27.246h-356.174c-31.788-0.266-63.8-10.952-88.554-27.246-24.622-16.606-45.814-39.046-58.324-68.342l-0.89-2.092-74.752-258.494-26.534-0.89c-34.504 0-62.51-28.004-62.51-62.464v-292.864h44.522v-89c0-47.15 41.806-64.424 88.91-64.424 47.058 0 89.176 17.318 89.176 64.424v89h534.26v-89c0-47.058 41.894-64.424 89-64.424 47.15 0 89.088 17.408 89.088 64.424v89h44.522l-0.044 292.864zM854.194 431.35c39.046 0 70.702-31.61 70.702-70.656 0-38.956-31.654-70.61-70.702-70.61-39 0-70.568 31.654-70.568 70.61 0.044 39 31.566 70.656 70.568 70.656zM268.512 747.364c20.882 44.522 54.984 44.788 65.402 44.522h356.174c7.524 0.178 44.522 0 66.784-44.522l66.784-222.61h-623.304l68.164 222.61zM166.824 290.038c-39.046 0-70.656 31.654-70.656 70.61 0 39.046 31.61 70.656 70.656 70.656 39.002 0 70.612-31.61 70.612-70.656 0-38.956-31.61-70.61-70.61-70.61z" />
<glyph unicode="&#x6f;" glyph-name="uni6F" d="M871.268 823.348h-357.182l-476.392-267.974v-472.824h955.398v443.072l-121.826 297.726zM907.1 258.252h-173.892l-43.424 42.116v43.472l43.424 1.356h173.892v-86.946zM907.1 430.788h-782.462v86.896l391.206 217.364h304.31l86.946-173.892v-130.368z" />
<glyph unicode="&#x70;" glyph-name="uni70" d="M1012.188 448.024l-26.384 45.634h-116.496l50.76 88.052-26.284 45.634h-52.822l-77.146-133.686h-172.634l86.342 149.516h154.292l26.384 45.684-26.436 45.684h-101.572l58.298 100.918-26.384 45.684h-52.72l-58.298-100.968-50.86 88.052h-52.72l-26.336-45.684 77.196-133.686-86.394-149.516-86.292 149.516 77.146 133.686-26.334 45.684h-52.772l-50.76-88.052-58.298 100.968h-52.72l-26.384-45.684 58.298-100.916h-101.67l-26.336-45.684 26.336-45.684h154.342l86.344-149.516h-172.586l-77.196 133.686h-52.72l-26.436-45.634 50.86-88.050h-116.548l-26.386-45.634 26.386-45.684h116.548l-50.86-88.052 26.384-45.634h52.72l77.196 133.684h172.634l-86.292-149.466h-154.392l-26.336-45.734 26.336-45.634h101.62l-58.3-100.918 26.386-45.734h52.72l58.298 101.018 50.81-88.052h52.772l26.334 45.634-77.146 133.686 86.292 149.518 86.394-149.518-77.196-133.684 26.336-45.634h52.72l50.86 88.052 58.298-101.018h52.72l26.384 45.734-58.298 100.918h101.572l26.384 45.634-26.384 45.734h-154.29l-86.342 149.518h172.634l77.146-133.684h52.822l26.284 45.634-50.76 88.052h116.496l26.436 45.634z" />
<glyph unicode="&#x71;" glyph-name="uni71" d="M1024 3.84c0 0-1.996 193.894-13.876 213.966-17.664 29.952-58.674 50.482-134.86 82.33-75.93 31.744-100.25 58.572-100.25 115.866 0 34.458 23.194 23.194 33.382 86.222 4.198 26.164 24.678 0.462 28.62 60.11 0 23.808-11.162 29.746-11.162 29.746s5.632 35.226 7.884 62.31c2.764 33.792-17.050 120.986-122.47 120.986s-125.134-87.246-122.418-120.986c2.202-27.086 7.834-62.31 7.834-62.31s-11.162-5.938-11.162-29.746c3.942-59.7 24.422-33.998 28.672-60.11 10.138-63.028 33.332-51.764 33.332-86.222 0-38.962-11.264-63.846-42.342-85.71 165.888-83.046 188.16-99.994 188.16-174.234v-152.218h230.656zM523.47 271.36c-101.324 42.29-133.632 78.028-133.632 154.47 0 45.876 30.926 30.926 44.492 114.996 5.582 34.866 32.974 0.562 38.144 80.128 0 31.744-14.9 39.63-14.9 39.63s7.578 46.95 10.548 83.098c3.686 44.954-22.734 161.28-163.276 161.28-140.544 0-166.912-116.274-163.226-161.28 2.97-36.146 10.496-83.098 10.496-83.098s-14.848-7.884-14.848-39.63c5.274-79.616 32.564-45.312 38.194-80.128 13.568-84.070 44.492-69.070 44.492-114.996 0-76.442-32.41-112.178-133.632-154.47-30.874-12.902-86.322-32.922-86.322-80.948v-186.572h711.374c0 0 0 110.336 0 139.826 0 43.878-86.374 85.198-187.904 127.692z" />
<glyph unicode="&#x72;" glyph-name="uni72" d="M1009.614 958.464c-34.816 34.868-68.096 1.894-180.992-52.326-302.080-145.254-828.62-440.27-828.62-440.27l452.352-64.666 64.666-452.404c0 0 295.066 526.542 440.27 828.622 54.322 112.946 87.194 146.124 52.326 181.042zM901.12 842.034l-328.602-610.15-33.332 277.3 361.932 332.85z" />
<glyph unicode="&#x73;" glyph-name="uni73" d="M921.6 768h-51.2v-768h51.2c56.32 0 102.4 46.080 102.4 102.4v563.2c0 56.32-46.080 102.4-102.4 102.4zM0 665.6v-563.2c0-56.32 46.080-102.4 102.4-102.4h51.2v768h-51.2c-56.32 0-102.4-46.080-102.4-102.4zM686.080 875.162c-34.866 16.23-90.522 46.438-174.080 46.438s-139.212-30.208-174.080-46.438v-107.162h-112.64v-768h573.44v768h-112.64v107.162zM624.64 768h-225.28v68.352c27.29 11.776 66.458 23.808 112.64 23.808s85.298-11.98 112.64-23.756v-68.404z" />
<glyph unicode="&#x74;" glyph-name="uni74" horiz-adv-x="586" d="M585.144 265.144q0-14.856-10.856-25.714t-25.714-10.856h-512q-14.856 0-25.714 10.856t-10.856 25.714 10.856 25.714l256 256q10.858 10.856 25.714 10.856t25.714-10.856l256-256q10.856-10.856 10.856-25.714z" />
<glyph unicode="&#x75;" glyph-name="uni75" d="M511.232 116.48v195.994l359.27-0.052v284.262h-359.27v195.636l-388.25-337.972z" />
<glyph unicode="&#x76;" glyph-name="uni76" d="M512.768 798.72v-195.994l-359.27 0.052v-284.262h359.27v-195.634l388.25 337.972z" />
<glyph unicode="&#x77;" glyph-name="uni77" d="M853.332 277.332h-682.668l-68.266-102.4h819.2l-68.268 102.4zM409.6 209.068l34.132 34.134h136.532l34.134-34.134h-204.8zM853.332 311.466c0 0 0.068 33.52 0 34.134 0 0 0 33.486 0 34.134v341.332c0 10.924-23.212 34.134-34.134 34.134h-614.4c-10.924 0-34.134-23.212-34.134-34.134v-341.332c0-0.65 0-34.134 0-68.266-0.068-0.614 0 0.682 0 0h682.668zM819.2 345.6h-614.4v375.466h614.4v-375.466zM887.466 140.8h-785.068c0-10.924 23.21-34.134 34.134-34.134h750.932c10.924 0 34.134 23.212 34.134 34.134h-34.134z" />
<glyph unicode="&#x78;" glyph-name="uni78" d="M748.682 891.732h-473.326c-25.326 0-36.42-10.41-36.42-34.132v-819.2c0-23.722 11.092-34.134 36.42-34.134h473.326c25.294 0 36.386 10.41 36.386 34.134v819.2c0 23.722-11.092 34.134-36.386 34.134zM409.6 72.534h-102.4v102.4h102.4v-102.4zM409.6 209.068h-102.4v102.4h102.4v-102.4zM580.268 72.534h-136.534v102.4h136.534v-102.4zM580.268 209.068h-136.534v102.4h136.534v-102.4zM443.734 413.866c0 0 127.044 0 136.532 0v-68.268c-8.942 0-136.534 0-136.534 0s0 51.404 0 68.268zM716.8 72.534h-102.4v102.4h102.4v-102.4zM716.8 209.068h-102.4v102.4h102.4v-102.4zM716.8 448h-409.6v375.466h409.6v-375.466z" />
<glyph unicode="&#x79;" glyph-name="uni79" d="M733.866 738.134l-102.4 34.134c-7.714-20.24-8.942-37.308-24.746-50.586-25.6-21.71-59.052-33.826-94.72-33.86-35.668 0.034-69.086 12.186-94.652 33.792-15.872 13.346-17.068 30.448-24.814 50.654l-102.4-34.132-136.532-102.4 68.266-102.4 85.332-17.068v-409.6h409.6v409.6l85.332 17.068 68.268 102.4-136.534 102.4z" />
<glyph unicode="&#x7a;" glyph-name="uni7A" d="M853.332 55.466c-0.886 161.724-44.578 267.196-107.418 347-64.136 81.202-148.992 125.542-233.37 140.116-123.084 21.264-187.87 54.204-223.334 85.538-19.354 19.592-48.776 110.012-48.776 110.012s72.636-67.926 93.558-79.498c26.25-17.954 84.14-47.138 187.29-64.854 95.948-16.452 192.854-67.378 265.216-159.094 13.106-16.59 21.47-18.672 32.768-37.854 85.264 187.222-97.86 313.686-306.416 341.332-229.034 30.346-306.45 102.4-306.45 102.4-102.162-238.932 28.366-463.292 218.318-541.934 136.704-56.592 251.016-55.158 326.416-4.198 34.064-136.534 34.064-238.932 34.064-238.932h68.13z" />
<glyph unicode="&#xa7;" glyph-name="shield" d="M643.872 728.064c-52.768 0-99.68 24.032-131.872 61.28-32.256-37.248-79.072-61.28-131.84-61.28-48.48 0-92.32 19.808-124.16 51.84v-389.408c0-21.664 4.704-44.704 14.048-69.152 8.448-21.664 19.072-41.568 32.16-59.296 13.024-16.992 28.896-34.432 47.52-52.32 18.656-15.968 35.456-29.6 50.336-40.992 15.84-10.336 32.16-20.704 48.992-31.072 16.736-9.376 28.416-16.48 34.944-21.248 7.456-1.792 13.056-4.256 16.768-6.912 3.712-1.024 7.52-1.92 11.232-2.848 3.712 0.928 7.008 1.824 9.824 2.848 4.608 2.688 10.24 5.12 16.768 6.912 7.52 4.768 19.616 11.872 36.448 21.248 16.736 10.336 33.056 20.704 48.896 31.072 14.976 11.392 31.744 25.056 50.432 40.992 17.632 17.888 33.024 35.296 46.112 52.32 13.952 17.76 25.184 37.632 33.568 59.296 9.312 24.448 13.984 47.488 13.984 69.152v389.408c-31.872-32-75.648-51.84-124.16-51.84zM640 405.344h-85.344v-85.344h-85.344v85.344h-85.344v85.344h85.344v85.344h85.344v-85.344h85.344v-85.344z" />
<glyph unicode="&#x20ac;" glyph-name="euro" d="M405.344 704c-153.216 0-277.344-124.256-277.344-277.344 0-153.184 124.128-277.344 277.344-277.344 153.12 0 277.344 124.16 277.344 277.344 0 153.088-124.192 277.344-277.344 277.344zM405.344 205.152c-129.408 0-221.792 110.816-221.792 221.728 0 129.408 92.384 221.728 221.792 221.728s221.6-92.32 221.6-221.728c0-129.536-92.192-221.728-221.6-221.728zM360.416 542.688c-24.736-19.296-42.272-44.128-52.224-74.4h-31.2l-5.76-29.344h30.176c-1.376-10.656-2.336-19.104-2.784-25.216h-21.632l-5.76-29.664h26.72c2.784-30.88 12.896-55.328 30.176-73.312 18.688-19.872 45.024-29.664 78.88-29.664 16.8 0 33.568 3.104 50.272 9.248l12.576 57.984c-16.768-12.704-36.48-19.072-58.976-19.072-15.104 0-27.936 5.408-38.752 16.256-10.752 10.656-16.608 23.552-17.44 38.528h93.216l5.6 29.664h-97.664c1.664 12.768 2.944 21.12 4 25.216h98.464l5.856 29.344h-95.104c16.288 35.2 41.44 52.768 75.552 52.768 20.384 0 35.36-6.624 45.056-19.84l20.992 51.744c-17.632 11.776-39.264 17.696-64.896 17.696-32.864 0-61.28-9.248-85.376-28zM688.128 576c14.048-26.496 24.576-55.136 30.752-85.344h177.12v85.344h-207.872zM725.344 426.656c0-21.92-2.272-43.36-6.432-64h177.12v85.344h-171.744c0.416-7.072 1.056-14.112 1.056-21.344zM660.736 234.656h235.264v85.344h-189.344c-10.976-30.944-26.528-59.552-45.92-85.344z" />
<glyph unicode="&#x25f7;" glyph-name="clock" d="M533.344 426.656h21.344v192h-85.344v-192h21.344l74.656-106.656h42.656l-74.656 106.656zM820.32 736.928c-70.368 69.632-184.352 69.248-256.512 2.464-52.096 0-51.488 0-103.584 0-72.064 68.352-168.96 57.6-248.928-2.464-61.856-46.56-91.232-184.16-21.728-257.408-2.848-17.28-11.872-34.144-11.872-52.192 0-69.408 30.72-107.616 72.096-160.224 9.888-12.544-91.392-148.352-79.744-159.232 11.616-11.168 118.688 62.592 131.936 53.152 57.472-41.376 134.944-53.152 208.48-53.152 71.584 0 154.848 13.6 208.48 53.152 13.344 9.76 113.504-64.928 125.344-53.152 10.592 10.592-82.208 147.232-73.344 159.232 40.16 53.024 67.2 89.312 67.2 160.224 0 21.6-2.688 31.744-6.912 52.192 61.568 71.456 57.472 189.824-10.912 257.408zM510.72 201.248c-122.496 0-222.080 100.224-222.080 223.584 0 123.264 99.328 237.088 221.792 237.088s222.336-113.76 222.336-237.088-99.616-223.584-222.048-223.584z" />
<glyph unicode="&#x2605;" glyph-name="uni54" d="M870.912 528.555l-248.021 36.053-110.891 224.725-110.933-224.725-247.979-36.053 179.456-174.891-42.325-246.997 221.824 116.565 221.781-116.565-42.325 246.997 179.413 174.891z" />
<glyph unicode="&#x2606;" glyph-name="uni55" d="M870.912 528.555l-248.021 36.011-110.891 224.768-110.891-224.725-248.021-36.011 179.456-174.933-42.325-246.997 221.824 116.565 221.781-116.565-42.325 246.955 179.413 174.933zM512 278.699l-156.629-82.389 29.909 174.421-126.72 123.563 175.147 25.472 78.293 158.677 78.336-158.677 175.104-25.472-126.763-123.563 29.909-174.421-156.587 82.389z" />
<glyph unicode="&#x260e;" glyph-name="uni45" d="M217.462 712.124c-34.544-446.362 255.248-668.262 303.31-694 113.63-65.536 223.472-24.884 288.596 81.544 0 0-86.528 130.15-141.106 169.438l-137.25-52.908c0 0-52.156 20.48-114.484 182.204s-37.376 211.9-37.376 211.9l118.17 45.534c23.108 88.986 33.314 241.46-74.034 252.79-105.438 11.982-197.53-103.322-205.824-196.506z" />
<glyph unicode="&#x2616;" glyph-name="uni47" d="M511.692 721.068l-286.174-290.988 47.24-50.346 238.932 238.932 238.932-238.932 47.856 50.346-286.788 290.988zM307.2 360.346v-185.412h136.532v170.668h136.534v-170.668h136.534v185.412l-204.8 224.188-204.8-224.188z" />
<glyph unicode="&#x266c;" glyph-name="uni42" d="M819.098 823.466l-443.63-68.266v-512c-23.006 7.918-49.288 10.65-77.346 3.754-62.362-15.292-103.186-65.774-91.238-112.742 11.98-46.932 72.226-72.568 134.588-57.276 54.784 13.448 102.264 29.73 102.264 63.864v443.732l307.2 68.268v-341.334c-23.346 8.124-43.794 14.576-72.294 7.578-63.010-15.462-104.312-66.424-92.228-113.87 12.082-47.446 73.010-73.352 136.020-57.89 57.378 14.096 99.362 52.462 96.768 95.914l-0.102 580.268z" />
<glyph unicode="&#x2708;" glyph-name="airplane" d="M826.4 786.528c-21.728-8.288-45.44-18.080-63.84-32.768l-128.736-108.96-394.656 83.552-48.096-47.52 303.904-173.408-152.416-184.544-120.544 36.896-51.424-47.904 114.656-58.336-10.144-12.32c-5.504-5.536-5.152-23.008 0.032-29.312 6.176-5.28 23.776-5.664 29.312-0.096l12.672 10.24 58.528-115.36 47.872 51.328-36.864 120.416 184.8 149.344 169.344-297.248 47.392 48.224-81.632 386.784 110.976 132.832c14.56 18.528 24.352 42.336 32.896 64 8.416 21.664-2.304 32.64-24.096 24.224zM275.616 211.296c-0.16 0.16-0.288 0.352-0.512 0.608-0.224 0.128-0.352 0.288-0.544 0.512l1.056-1.12z" />
</font>
</defs>
</svg>
